<?xml version="1.0" standalone="no"?>
<!DOCTYPE svg PUBLIC "-//W3C//DTD SVG 1.1//EN" "http://www.w3.org/Graphics/SVG/1.1/DTD/svg11.dtd" >
<svg xmlns="http://www.w3.org/2000/svg">
<metadata></metadata>
<defs>
<font id="digital_dreamregular" horiz-adv-x="800" >
<font-face units-per-em="1000" ascent="800" descent="-200" />
<missing-glyph horiz-adv-x="500" />
<glyph horiz-adv-x="1000" />
<glyph horiz-adv-x="1000" />
<glyph unicode="&#xd;" />
<glyph unicode=" " />
<glyph unicode="!" d="M405 360l-40 -44l-43 44v321l40 44l43 -44v-321zM436 -104q0 -29 -21.5 -51t-50.5 -22q-30 0 -51.5 21.5t-21.5 51.5q0 31 21 51t52 20q30 0 51 -20.5t21 -50.5z" />
<glyph unicode="&#x22;" d="M405 560l-40 -44l-43 44v121l40 44l43 -44v-121zM103 560l-40 -44l-42 44v121l40 44l42 -44v-121z" />
<glyph unicode="#" d="M706 360l-40 -44l-42 44v323l40 44l42 -44v-323zM405 360l-40 -44l-43 44v321l40 44l43 -44v-321zM651 303l-44 -42h-185l-44 40l44 42h185zM706 -77l-40 -45l-42 45v320l40 44l42 -44v-320zM103 360l-40 -44l-42 44v321l40 44l42 -44v-321zM349 303l-44 -42h-185l-44 40 l44 42h185zM405 -77l-40 -45l-43 45v320l40 44l43 -44v-320zM103 -77l-40 -45l-42 45v320l40 44l42 -44v-320z" />
<glyph unicode="$" d="M651 741l-44 -42h-185l-44 40l44 42h185zM349 741l-44 -42h-185l-44 40l44 42h185zM651 303l-44 -42h-185l-44 40l44 42h185zM706 -77l-40 -45l-42 45v320l40 44l42 -44v-320zM103 360l-40 -44l-42 44v321l40 44l42 -44v-321zM349 303l-44 -42h-185l-44 40l44 42h185z M651 -135l-44 -42h-185l-44 40l44 42h185zM349 -135l-44 -42h-185l-44 40l44 42h185zM405 360l-40 -44l-43 44v321l40 44l43 -44v-321zM405 -77l-40 -45l-43 45v320l40 44l43 -44v-320z" />
<glyph unicode="%" d="M609 577l-153 -219h-37v86l168 240h22v-107zM308 160l-168 -240h-22v106l153 220h37v-86zM349 741l-44 -42h-185l-44 40l44 42h185zM405 360l-40 -44l-43 44v321l40 44l43 -44v-321zM651 303l-44 -42h-185l-44 40l44 42h185zM706 -77l-40 -45l-42 45v320l40 44l42 -44 v-320zM103 360l-40 -44l-42 44v321l40 44l42 -44v-321zM349 303l-44 -42h-185l-44 40l44 42h185zM405 -77l-40 -45l-43 45v320l40 44l43 -44v-320zM651 -135l-44 -42h-185l-44 40l44 42h185z" />
<glyph unicode="&#x26;" d="M349 741l-44 -42h-185l-44 40l44 42h185zM405 360l-40 -44l-43 44v321l40 44l43 -44v-321zM103 360l-40 -44l-42 44v321l40 44l42 -44v-321zM349 303l-44 -42h-185l-44 40l44 42h185zM405 -77l-40 -45l-43 45v320l40 44l43 -44v-320zM651 -135l-44 -42h-185l-44 40l44 42 h185zM103 -77l-40 -45l-42 45v320l40 44l42 -44v-320zM349 -135l-44 -42h-185l-44 40l44 42h185zM609 160l-168 -240h-22v106l154 220h36v-86z" />
<glyph unicode="'" d="M405 560l-40 -44l-43 44v121l40 44l43 -44v-121z" />
<glyph unicode="(" d="M651 741l-44 -42h-185l-44 40l44 42h185zM405 360l-40 -44l-43 44v321l40 44l43 -44v-321zM405 -77l-40 -45l-43 45v320l40 44l43 -44v-320zM651 -135l-44 -42h-185l-44 40l44 42h185z" />
<glyph unicode=")" d="M349 741l-44 -42h-185l-44 40l44 42h185zM405 360l-40 -44l-43 44v321l40 44l43 -44v-321zM405 -77l-40 -45l-43 45v320l40 44l43 -44v-320zM349 -135l-44 -42h-185l-44 40l44 42h185z" />
<glyph unicode="*" d="M609 577l-153 -219h-37v86l168 240h22v-107zM308 358h-37l-153 219v107h22l168 -240v-86zM609 -80h-22l-168 240v86h37l153 -220v-106zM308 160l-168 -240h-22v106l153 220h37v-86z" />
<glyph unicode="+" d="M405 360l-40 -44l-43 44v321l40 44l43 -44v-321zM651 303l-44 -42h-185l-44 40l44 42h185zM349 303l-44 -42h-185l-44 40l44 42h185zM405 -77l-40 -45l-43 45v320l40 44l43 -44v-320z" />
<glyph unicode="," d="M436 -104q0 -32 -20 -79q-23 -54 -52 -54t-53 53q-20 45 -20 80q0 31 21 51t52 20q30 0 51 -20.5t21 -50.5z" />
<glyph unicode="-" d="M651 303l-44 -42h-185l-44 40l44 42h185zM349 303l-44 -42h-185l-44 40l44 42h185z" />
<glyph unicode="." d="M436 -104q0 -29 -21.5 -51t-50.5 -22q-30 0 -51.5 21.5t-21.5 51.5q0 31 21 51t52 20q30 0 51 -20.5t21 -50.5z" />
<glyph unicode="/" d="M609 577l-153 -219h-37v86l168 240h22v-107zM308 160l-168 -240h-22v106l153 220h37v-86z" />
<glyph unicode="0" d="M651 741l-44 -42h-185l-44 40l44 42h185zM706 360l-40 -44l-42 44v323l40 44l42 -44v-323zM609 577l-153 -219h-37v86l168 240h22v-107zM349 741l-44 -42h-185l-44 40l44 42h185zM706 -77l-40 -45l-42 45v320l40 44l42 -44v-320zM103 360l-40 -44l-42 44v321l40 44 l42 -44v-321zM651 -135l-44 -42h-185l-44 40l44 42h185zM308 160l-168 -240h-22v106l153 220h37v-86zM103 -77l-40 -45l-42 45v320l40 44l42 -44v-320zM349 -135l-44 -42h-185l-44 40l44 42h185z" />
<glyph unicode="1" d="M349 741l-44 -42h-185l-44 40l44 42h185zM405 360l-40 -44l-43 44v321l40 44l43 -44v-321zM405 -77l-40 -45l-43 45v320l40 44l43 -44v-320zM651 -135l-44 -42h-185l-44 40l44 42h185zM349 -135l-44 -42h-185l-44 40l44 42h185z" />
<glyph unicode="2" d="M651 741l-44 -42h-185l-44 40l44 42h185zM706 360l-40 -44l-42 44v323l40 44l42 -44v-323zM349 741l-44 -42h-185l-44 40l44 42h185zM651 303l-44 -42h-185l-44 40l44 42h185zM349 303l-44 -42h-185l-44 40l44 42h185zM651 -135l-44 -42h-185l-44 40l44 42h185zM103 -77 l-40 -45l-42 45v320l40 44l42 -44v-320zM349 -135l-44 -42h-185l-44 40l44 42h185z" />
<glyph unicode="3" d="M651 741l-44 -42h-185l-44 40l44 42h185zM706 360l-40 -44l-42 44v323l40 44l42 -44v-323zM349 741l-44 -42h-185l-44 40l44 42h185zM651 303l-44 -42h-185l-44 40l44 42h185zM706 -77l-40 -45l-42 45v320l40 44l42 -44v-320zM651 -135l-44 -42h-185l-44 40l44 42h185z M349 -135l-44 -42h-185l-44 40l44 42h185z" />
<glyph unicode="4" d="M706 360l-40 -44l-42 44v323l40 44l42 -44v-323zM651 303l-44 -42h-185l-44 40l44 42h185zM706 -77l-40 -45l-42 45v320l40 44l42 -44v-320zM103 360l-40 -44l-42 44v321l40 44l42 -44v-321zM349 303l-44 -42h-185l-44 40l44 42h185z" />
<glyph unicode="5" d="M651 741l-44 -42h-185l-44 40l44 42h185zM349 741l-44 -42h-185l-44 40l44 42h185zM651 303l-44 -42h-185l-44 40l44 42h185zM706 -77l-40 -45l-42 45v320l40 44l42 -44v-320zM103 360l-40 -44l-42 44v321l40 44l42 -44v-321zM349 303l-44 -42h-185l-44 40l44 42h185z M651 -135l-44 -42h-185l-44 40l44 42h185zM349 -135l-44 -42h-185l-44 40l44 42h185z" />
<glyph unicode="6" d="M651 741l-44 -42h-185l-44 40l44 42h185zM349 741l-44 -42h-185l-44 40l44 42h185zM651 303l-44 -42h-185l-44 40l44 42h185zM706 -77l-40 -45l-42 45v320l40 44l42 -44v-320zM103 360l-40 -44l-42 44v321l40 44l42 -44v-321zM349 303l-44 -42h-185l-44 40l44 42h185z M651 -135l-44 -42h-185l-44 40l44 42h185zM103 -77l-40 -45l-42 45v320l40 44l42 -44v-320zM349 -135l-44 -42h-185l-44 40l44 42h185z" />
<glyph unicode="7" d="M651 741l-44 -42h-185l-44 40l44 42h185zM609 577l-153 -219h-37v86l168 240h22v-107zM349 741l-44 -42h-185l-44 40l44 42h185zM308 160l-168 -240h-22v106l153 220h37v-86z" />
<glyph unicode="8" d="M651 741l-44 -42h-185l-44 40l44 42h185zM706 360l-40 -44l-42 44v323l40 44l42 -44v-323zM349 741l-44 -42h-185l-44 40l44 42h185zM651 303l-44 -42h-185l-44 40l44 42h185zM706 -77l-40 -45l-42 45v320l40 44l42 -44v-320zM103 360l-40 -44l-42 44v321l40 44l42 -44 v-321zM349 303l-44 -42h-185l-44 40l44 42h185zM651 -135l-44 -42h-185l-44 40l44 42h185zM103 -77l-40 -45l-42 45v320l40 44l42 -44v-320zM349 -135l-44 -42h-185l-44 40l44 42h185z" />
<glyph unicode="9" d="M651 741l-44 -42h-185l-44 40l44 42h185zM706 360l-40 -44l-42 44v323l40 44l42 -44v-323zM349 741l-44 -42h-185l-44 40l44 42h185zM651 303l-44 -42h-185l-44 40l44 42h185zM706 -77l-40 -45l-42 45v320l40 44l42 -44v-320zM103 360l-40 -44l-42 44v321l40 44l42 -44 v-321zM349 303l-44 -42h-185l-44 40l44 42h185zM651 -135l-44 -42h-185l-44 40l44 42h185zM349 -135l-44 -42h-185l-44 40l44 42h185z" />
<glyph unicode=":" d="M436 435q0 -31 -20.5 -51t-51.5 -20q-30 0 -51.5 20.5t-21.5 50.5t21.5 51.5t51.5 21.5t51 -21.5t21 -51.5zM436 169q0 -29 -21.5 -51.5t-50.5 -22.5q-30 0 -51.5 22t-21.5 52q0 31 21 51t52 20q29 0 50.5 -21t21.5 -50z" />
<glyph unicode=";" d="M436 435q0 -31 -20.5 -51t-51.5 -20q-30 0 -51.5 20.5t-21.5 50.5t21.5 51.5t51.5 21.5t51 -21.5t21 -51.5zM436 169q0 -35 -21 -81q-24 -53 -51 -53q-30 0 -53 54q-20 47 -20 80q0 31 21 51t52 20q29 0 50.5 -21t21.5 -50z" />
<glyph unicode="&#x3c;" d="M609 577l-153 -219h-37v86l168 240h22v-107zM609 -80h-22l-168 240v86h37l153 -220v-106z" />
<glyph unicode="=" d="M651 403l-44 -42h-185l-44 40l44 42h185zM349 403l-44 -42h-185l-44 40l44 42h185zM651 203l-44 -42h-185l-44 40l44 42h185zM349 203l-44 -42h-185l-44 40l44 42h185z" />
<glyph unicode="&#x3e;" d="M308 358h-37l-153 219v107h22l168 -240v-86zM308 160l-168 -240h-22v106l153 220h37v-86z" />
<glyph unicode="?" d="M651 741l-44 -42h-185l-44 40l44 42h185zM706 360l-40 -44l-42 44v323l40 44l42 -44v-323zM349 741l-44 -42h-185l-44 40l44 42h185zM651 303l-44 -42h-185l-44 40l44 42h185zM405 -77l-40 -45l-43 45v320l40 44l43 -44v-320z" />
<glyph unicode="@" d="M651 741l-44 -42h-185l-44 40l44 42h185zM706 360l-40 -44l-42 44v323l40 44l42 -44v-323zM609 577l-153 -219h-37v86l168 240h22v-107zM349 741l-44 -42h-185l-44 40l44 42h185zM405 360l-40 -44l-43 44v321l40 44l43 -44v-321zM651 303l-44 -42h-185l-44 40l44 42h185z M706 -77l-40 -45l-42 45v320l40 44l42 -44v-320zM308 358h-37l-153 219v107h22l168 -240v-86zM609 -80h-22l-168 240v86h37l153 -220v-106zM103 360l-40 -44l-42 44v321l40 44l42 -44v-321zM349 303l-44 -42h-185l-44 40l44 42h185zM405 -77l-40 -45l-43 45v320l40 44 l43 -44v-320zM651 -135l-44 -42h-185l-44 40l44 42h185zM308 160l-168 -240h-22v106l153 220h37v-86zM103 -77l-40 -45l-42 45v320l40 44l42 -44v-320zM349 -135l-44 -42h-185l-44 40l44 42h185z" />
<glyph unicode="A" d="M609 358h-36l-154 219v107h22l168 -240v-86zM651 303l-44 -42h-185l-44 40l44 42h185zM706 -77l-40 -45l-42 45v320l40 44l42 -44v-320zM308 577l-154 -219h-36v86l168 240h22v-107zM349 303l-44 -42h-185l-44 40l44 42h185zM103 -77l-40 -45l-42 45v320l40 44l42 -44 v-320z" />
<glyph unicode="B" d="M651 741l-44 -42h-185l-44 40l44 42h185zM706 360l-40 -44l-42 44v323l40 44l42 -44v-323zM349 741l-44 -42h-185l-44 40l44 42h185zM651 303l-44 -42h-185l-44 40l44 42h185zM706 -77l-40 -45l-42 45v320l40 44l42 -44v-320zM103 360l-40 -44l-42 44v321l40 44l42 -44 v-321zM349 303l-44 -42h-185l-44 40l44 42h185zM651 -135l-44 -42h-185l-44 40l44 42h185zM103 -77l-40 -45l-42 45v320l40 44l42 -44v-320zM349 -135l-44 -42h-185l-44 40l44 42h185z" />
<glyph unicode="C" d="M651 741l-44 -42h-185l-44 40l44 42h185zM349 741l-44 -42h-185l-44 40l44 42h185zM103 360l-40 -44l-42 44v321l40 44l42 -44v-321zM651 -135l-44 -42h-185l-44 40l44 42h185zM103 -77l-40 -45l-42 45v320l40 44l42 -44v-320zM349 -135l-44 -42h-185l-44 40l44 42h185z " />
<glyph unicode="D" d="M609 358h-36l-154 219v107h22l168 -240v-86zM349 741l-44 -42h-185l-44 40l44 42h185zM609 160l-168 -240h-22v106l154 220h36v-86zM103 360l-40 -44l-42 44v321l40 44l42 -44v-321zM103 -77l-40 -45l-42 45v320l40 44l42 -44v-320zM349 -135l-44 -42h-185l-44 40l44 42 h185z" />
<glyph unicode="E" d="M651 741l-44 -42h-185l-44 40l44 42h185zM349 741l-44 -42h-185l-44 40l44 42h185zM651 303l-44 -42h-185l-44 40l44 42h185zM103 360l-40 -44l-42 44v321l40 44l42 -44v-321zM349 303l-44 -42h-185l-44 40l44 42h185zM651 -135l-44 -42h-185l-44 40l44 42h185zM103 -77 l-40 -45l-42 45v320l40 44l42 -44v-320zM349 -135l-44 -42h-185l-44 40l44 42h185z" />
<glyph unicode="F" d="M651 741l-44 -42h-185l-44 40l44 42h185zM349 741l-44 -42h-185l-44 40l44 42h185zM651 303l-44 -42h-185l-44 40l44 42h185zM103 360l-40 -44l-42 44v321l40 44l42 -44v-321zM349 303l-44 -42h-185l-44 40l44 42h185zM103 -77l-40 -45l-42 45v320l40 44l42 -44v-320z " />
<glyph unicode="G" d="M651 741l-44 -42h-185l-44 40l44 42h185zM349 741l-44 -42h-185l-44 40l44 42h185zM651 303l-44 -42h-185l-44 40l44 42h185zM706 -77l-40 -45l-42 45v320l40 44l42 -44v-320zM103 360l-40 -44l-42 44v321l40 44l42 -44v-321zM651 -135l-44 -42h-185l-44 40l44 42h185z M103 -77l-40 -45l-42 45v320l40 44l42 -44v-320zM349 -135l-44 -42h-185l-44 40l44 42h185z" />
<glyph unicode="H" d="M706 360l-40 -44l-42 44v323l40 44l42 -44v-323zM651 303l-44 -42h-185l-44 40l44 42h185zM706 -77l-40 -45l-42 45v320l40 44l42 -44v-320zM103 360l-40 -44l-42 44v321l40 44l42 -44v-321zM349 303l-44 -42h-185l-44 40l44 42h185zM103 -77l-40 -45l-42 45v320l40 44 l42 -44v-320z" />
<glyph unicode="I" d="M651 741l-44 -42h-185l-44 40l44 42h185zM349 741l-44 -42h-185l-44 40l44 42h185zM405 360l-40 -44l-43 44v321l40 44l43 -44v-321zM405 -77l-40 -45l-43 45v320l40 44l43 -44v-320zM651 -135l-44 -42h-185l-44 40l44 42h185zM349 -135l-44 -42h-185l-44 40l44 42h185z " />
<glyph unicode="J" d="M651 741l-44 -42h-185l-44 40l44 42h185zM706 360l-40 -44l-42 44v323l40 44l42 -44v-323zM706 -77l-40 -45l-42 45v320l40 44l42 -44v-320zM651 -135l-44 -42h-185l-44 40l44 42h185zM103 -77l-40 -45l-42 45v320l40 44l42 -44v-320zM349 -135l-44 -42h-185l-44 40 l44 42h185z" />
<glyph unicode="K" d="M609 577l-153 -219h-37v86l168 240h22v-107zM609 -80h-22l-168 240v86h37l153 -220v-106zM103 360l-40 -44l-42 44v321l40 44l42 -44v-321zM349 303l-44 -42h-185l-44 40l44 42h185zM103 -77l-40 -45l-42 45v320l40 44l42 -44v-320z" />
<glyph unicode="L" d="M103 360l-40 -44l-42 44v321l40 44l42 -44v-321zM651 -135l-44 -42h-185l-44 40l44 42h185zM103 -77l-40 -45l-42 45v320l40 44l42 -44v-320zM349 -135l-44 -42h-185l-44 40l44 42h185z" />
<glyph unicode="M" d="M706 360l-40 -44l-42 44v323l40 44l42 -44v-323zM609 577l-153 -219h-37v86l168 240h22v-107zM706 -77l-40 -45l-42 45v320l40 44l42 -44v-320zM308 358h-37l-153 219v107h22l168 -240v-86zM103 360l-40 -44l-42 44v321l40 44l42 -44v-321zM103 -77l-40 -45l-42 45v320 l40 44l42 -44v-320z" />
<glyph unicode="N" d="M706 360l-40 -44l-42 44v323l40 44l42 -44v-323zM706 -77l-40 -45l-42 45v320l40 44l42 -44v-320zM308 358h-37l-153 219v107h22l168 -240v-86zM609 -80h-22l-168 240v86h37l153 -220v-106zM103 360l-40 -44l-42 44v321l40 44l42 -44v-321zM103 -77l-40 -45l-42 45v320 l40 44l42 -44v-320z" />
<glyph unicode="O" d="M651 741l-44 -42h-185l-44 40l44 42h185zM706 360l-40 -44l-42 44v323l40 44l42 -44v-323zM349 741l-44 -42h-185l-44 40l44 42h185zM706 -77l-40 -45l-42 45v320l40 44l42 -44v-320zM103 360l-40 -44l-42 44v321l40 44l42 -44v-321zM651 -135l-44 -42h-185l-44 40l44 42 h185zM103 -77l-40 -45l-42 45v320l40 44l42 -44v-320zM349 -135l-44 -42h-185l-44 40l44 42h185z" />
<glyph unicode="P" d="M651 741l-44 -42h-185l-44 40l44 42h185zM706 360l-40 -44l-42 44v323l40 44l42 -44v-323zM349 741l-44 -42h-185l-44 40l44 42h185zM651 303l-44 -42h-185l-44 40l44 42h185zM103 360l-40 -44l-42 44v321l40 44l42 -44v-321zM349 303l-44 -42h-185l-44 40l44 42h185z M103 -77l-40 -45l-42 45v320l40 44l42 -44v-320z" />
<glyph unicode="Q" d="M651 741l-44 -42h-185l-44 40l44 42h185zM706 360l-40 -44l-42 44v323l40 44l42 -44v-323zM349 741l-44 -42h-185l-44 40l44 42h185zM706 -77l-40 -45l-42 45v320l40 44l42 -44v-320zM609 -80h-22l-168 240v86h37l153 -220v-106zM103 360l-40 -44l-42 44v321l40 44 l42 -44v-321zM651 -135l-44 -42h-185l-44 40l44 42h185zM103 -77l-40 -45l-42 45v320l40 44l42 -44v-320zM349 -135l-44 -42h-185l-44 40l44 42h185z" />
<glyph unicode="R" d="M651 741l-44 -42h-185l-44 40l44 42h185zM706 360l-40 -44l-42 44v323l40 44l42 -44v-323zM349 741l-44 -42h-185l-44 40l44 42h185zM651 303l-44 -42h-185l-44 40l44 42h185zM609 -80h-22l-168 240v86h37l153 -220v-106zM103 360l-40 -44l-42 44v321l40 44l42 -44v-321z M349 303l-44 -42h-185l-44 40l44 42h185zM103 -77l-40 -45l-42 45v320l40 44l42 -44v-320z" />
<glyph unicode="S" d="M651 741l-44 -42h-185l-44 40l44 42h185zM349 741l-44 -42h-185l-44 40l44 42h185zM651 303l-44 -42h-185l-44 40l44 42h185zM706 -77l-40 -45l-42 45v320l40 44l42 -44v-320zM103 360l-40 -44l-42 44v321l40 44l42 -44v-321zM349 303l-44 -42h-185l-44 40l44 42h185z M651 -135l-44 -42h-185l-44 40l44 42h185zM349 -135l-44 -42h-185l-44 40l44 42h185z" />
<glyph unicode="T" d="M651 741l-44 -42h-185l-44 40l44 42h185zM349 741l-44 -42h-185l-44 40l44 42h185zM405 360l-40 -44l-43 44v321l40 44l43 -44v-321zM405 -77l-40 -45l-43 45v320l40 44l43 -44v-320z" />
<glyph unicode="U" d="M706 360l-40 -44l-42 44v323l40 44l42 -44v-323zM706 -77l-40 -45l-42 45v320l40 44l42 -44v-320zM103 360l-40 -44l-42 44v321l40 44l42 -44v-321zM651 -135l-44 -42h-185l-44 40l44 42h185zM103 -77l-40 -45l-42 45v320l40 44l42 -44v-320zM349 -135l-44 -42h-185 l-44 40l44 42h185z" />
<glyph unicode="V" d="M706 360l-40 -44l-42 44v323l40 44l42 -44v-323zM609 160l-168 -240h-22v106l154 220h36v-86zM103 360l-40 -44l-42 44v321l40 44l42 -44v-321zM308 -80h-22l-168 240v86h36l154 -220v-106z" />
<glyph unicode="W" d="M706 360l-40 -44l-42 44v323l40 44l42 -44v-323zM706 -77l-40 -45l-42 45v320l40 44l42 -44v-320zM609 -80h-22l-168 240v86h37l153 -220v-106zM103 360l-40 -44l-42 44v321l40 44l42 -44v-321zM308 160l-168 -240h-22v106l153 220h37v-86zM103 -77l-40 -45l-42 45v320 l40 44l42 -44v-320z" />
<glyph unicode="X" d="M609 577l-153 -219h-37v86l168 240h22v-107zM308 358h-37l-153 219v107h22l168 -240v-86zM609 -80h-22l-168 240v86h37l153 -220v-106zM308 160l-168 -240h-22v106l153 220h37v-86z" />
<glyph unicode="Y" d="M609 577l-153 -219h-37v86l168 240h22v-107zM308 358h-37l-153 219v107h22l168 -240v-86zM405 -77l-40 -45l-43 45v320l40 44l43 -44v-320z" />
<glyph unicode="Z" d="M651 741l-44 -42h-185l-44 40l44 42h185zM609 577l-153 -219h-37v86l168 240h22v-107zM349 741l-44 -42h-185l-44 40l44 42h185zM651 -135l-44 -42h-185l-44 40l44 42h185zM308 160l-168 -240h-22v106l153 220h37v-86zM349 -135l-44 -42h-185l-44 40l44 42h185z" />
<glyph unicode="[" d="M651 741l-44 -42h-185l-44 40l44 42h185zM405 360l-40 -44l-43 44v321l40 44l43 -44v-321zM405 -77l-40 -45l-43 45v320l40 44l43 -44v-320zM651 -135l-44 -42h-185l-44 40l44 42h185z" />
<glyph unicode="\" d="M308 358h-37l-153 219v107h22l168 -240v-86zM609 -80h-22l-168 240v86h37l153 -220v-106z" />
<glyph unicode="]" d="M349 741l-44 -42h-185l-44 40l44 42h185zM405 360l-40 -44l-43 44v321l40 44l43 -44v-321zM405 -77l-40 -45l-43 45v320l40 44l43 -44v-320zM349 -135l-44 -42h-185l-44 40l44 42h185z" />
<glyph unicode="^" d="M609 358h-36l-154 219v107h22l168 -240v-86zM308 577l-154 -219h-36v86l168 240h22v-107z" />
<glyph unicode="_" d="M651 -135l-44 -42h-185l-44 40l44 42h185zM349 -135l-44 -42h-185l-44 40l44 42h185z" />
<glyph unicode="`" d="M308 358h-37l-153 219v107h22l168 -240v-86z" />
<glyph unicode="a" d="M609 358h-36l-154 219v107h22l168 -240v-86zM651 303l-44 -42h-185l-44 40l44 42h185zM706 -77l-40 -45l-42 45v320l40 44l42 -44v-320zM308 577l-154 -219h-36v86l168 240h22v-107zM349 303l-44 -42h-185l-44 40l44 42h185zM103 -77l-40 -45l-42 45v320l40 44l42 -44 v-320z" />
<glyph unicode="b" d="M651 741l-44 -42h-185l-44 40l44 42h185zM706 360l-40 -44l-42 44v323l40 44l42 -44v-323zM349 741l-44 -42h-185l-44 40l44 42h185zM651 303l-44 -42h-185l-44 40l44 42h185zM706 -77l-40 -45l-42 45v320l40 44l42 -44v-320zM103 360l-40 -44l-42 44v321l40 44l42 -44 v-321zM349 303l-44 -42h-185l-44 40l44 42h185zM651 -135l-44 -42h-185l-44 40l44 42h185zM103 -77l-40 -45l-42 45v320l40 44l42 -44v-320zM349 -135l-44 -42h-185l-44 40l44 42h185z" />
<glyph unicode="c" d="M651 741l-44 -42h-185l-44 40l44 42h185zM349 741l-44 -42h-185l-44 40l44 42h185zM103 360l-40 -44l-42 44v321l40 44l42 -44v-321zM651 -135l-44 -42h-185l-44 40l44 42h185zM103 -77l-40 -45l-42 45v320l40 44l42 -44v-320zM349 -135l-44 -42h-185l-44 40l44 42h185z " />
<glyph unicode="d" d="M609 358h-36l-154 219v107h22l168 -240v-86zM349 741l-44 -42h-185l-44 40l44 42h185zM609 160l-168 -240h-22v106l154 220h36v-86zM103 360l-40 -44l-42 44v321l40 44l42 -44v-321zM103 -77l-40 -45l-42 45v320l40 44l42 -44v-320zM349 -135l-44 -42h-185l-44 40l44 42 h185z" />
<glyph unicode="e" d="M651 741l-44 -42h-185l-44 40l44 42h185zM349 741l-44 -42h-185l-44 40l44 42h185zM651 303l-44 -42h-185l-44 40l44 42h185zM103 360l-40 -44l-42 44v321l40 44l42 -44v-321zM349 303l-44 -42h-185l-44 40l44 42h185zM651 -135l-44 -42h-185l-44 40l44 42h185zM103 -77 l-40 -45l-42 45v320l40 44l42 -44v-320zM349 -135l-44 -42h-185l-44 40l44 42h185z" />
<glyph unicode="f" d="M651 741l-44 -42h-185l-44 40l44 42h185zM349 741l-44 -42h-185l-44 40l44 42h185zM651 303l-44 -42h-185l-44 40l44 42h185zM103 360l-40 -44l-42 44v321l40 44l42 -44v-321zM349 303l-44 -42h-185l-44 40l44 42h185zM103 -77l-40 -45l-42 45v320l40 44l42 -44v-320z " />
<glyph unicode="g" d="M651 741l-44 -42h-185l-44 40l44 42h185zM349 741l-44 -42h-185l-44 40l44 42h185zM651 303l-44 -42h-185l-44 40l44 42h185zM706 -77l-40 -45l-42 45v320l40 44l42 -44v-320zM103 360l-40 -44l-42 44v321l40 44l42 -44v-321zM651 -135l-44 -42h-185l-44 40l44 42h185z M103 -77l-40 -45l-42 45v320l40 44l42 -44v-320zM349 -135l-44 -42h-185l-44 40l44 42h185z" />
<glyph unicode="h" d="M706 360l-40 -44l-42 44v323l40 44l42 -44v-323zM651 303l-44 -42h-185l-44 40l44 42h185zM706 -77l-40 -45l-42 45v320l40 44l42 -44v-320zM103 360l-40 -44l-42 44v321l40 44l42 -44v-321zM349 303l-44 -42h-185l-44 40l44 42h185zM103 -77l-40 -45l-42 45v320l40 44 l42 -44v-320z" />
<glyph unicode="i" d="M651 741l-44 -42h-185l-44 40l44 42h185zM349 741l-44 -42h-185l-44 40l44 42h185zM405 360l-40 -44l-43 44v321l40 44l43 -44v-321zM405 -77l-40 -45l-43 45v320l40 44l43 -44v-320zM651 -135l-44 -42h-185l-44 40l44 42h185zM349 -135l-44 -42h-185l-44 40l44 42h185z " />
<glyph unicode="j" d="M651 741l-44 -42h-185l-44 40l44 42h185zM706 360l-40 -44l-42 44v323l40 44l42 -44v-323zM706 -77l-40 -45l-42 45v320l40 44l42 -44v-320zM651 -135l-44 -42h-185l-44 40l44 42h185zM103 -77l-40 -45l-42 45v320l40 44l42 -44v-320zM349 -135l-44 -42h-185l-44 40 l44 42h185z" />
<glyph unicode="k" d="M609 577l-153 -219h-37v86l168 240h22v-107zM609 -80h-22l-168 240v86h37l153 -220v-106zM103 360l-40 -44l-42 44v321l40 44l42 -44v-321zM349 303l-44 -42h-185l-44 40l44 42h185zM103 -77l-40 -45l-42 45v320l40 44l42 -44v-320z" />
<glyph unicode="l" d="M103 360l-40 -44l-42 44v321l40 44l42 -44v-321zM651 -135l-44 -42h-185l-44 40l44 42h185zM103 -77l-40 -45l-42 45v320l40 44l42 -44v-320zM349 -135l-44 -42h-185l-44 40l44 42h185z" />
<glyph unicode="m" d="M706 360l-40 -44l-42 44v323l40 44l42 -44v-323zM609 577l-153 -219h-37v86l168 240h22v-107zM706 -77l-40 -45l-42 45v320l40 44l42 -44v-320zM308 358h-37l-153 219v107h22l168 -240v-86zM103 360l-40 -44l-42 44v321l40 44l42 -44v-321zM103 -77l-40 -45l-42 45v320 l40 44l42 -44v-320z" />
<glyph unicode="n" d="M706 360l-40 -44l-42 44v323l40 44l42 -44v-323zM706 -77l-40 -45l-42 45v320l40 44l42 -44v-320zM308 358h-37l-153 219v107h22l168 -240v-86zM609 -80h-22l-168 240v86h37l153 -220v-106zM103 360l-40 -44l-42 44v321l40 44l42 -44v-321zM103 -77l-40 -45l-42 45v320 l40 44l42 -44v-320z" />
<glyph unicode="o" d="M651 741l-44 -42h-185l-44 40l44 42h185zM706 360l-40 -44l-42 44v323l40 44l42 -44v-323zM349 741l-44 -42h-185l-44 40l44 42h185zM706 -77l-40 -45l-42 45v320l40 44l42 -44v-320zM103 360l-40 -44l-42 44v321l40 44l42 -44v-321zM651 -135l-44 -42h-185l-44 40l44 42 h185zM103 -77l-40 -45l-42 45v320l40 44l42 -44v-320zM349 -135l-44 -42h-185l-44 40l44 42h185z" />
<glyph unicode="p" d="M651 741l-44 -42h-185l-44 40l44 42h185zM706 360l-40 -44l-42 44v323l40 44l42 -44v-323zM349 741l-44 -42h-185l-44 40l44 42h185zM651 303l-44 -42h-185l-44 40l44 42h185zM103 360l-40 -44l-42 44v321l40 44l42 -44v-321zM349 303l-44 -42h-185l-44 40l44 42h185z M103 -77l-40 -45l-42 45v320l40 44l42 -44v-320z" />
<glyph unicode="q" d="M651 741l-44 -42h-185l-44 40l44 42h185zM706 360l-40 -44l-42 44v323l40 44l42 -44v-323zM349 741l-44 -42h-185l-44 40l44 42h185zM706 -77l-40 -45l-42 45v320l40 44l42 -44v-320zM609 -80h-22l-168 240v86h37l153 -220v-106zM103 360l-40 -44l-42 44v321l40 44 l42 -44v-321zM651 -135l-44 -42h-185l-44 40l44 42h185zM103 -77l-40 -45l-42 45v320l40 44l42 -44v-320zM349 -135l-44 -42h-185l-44 40l44 42h185z" />
<glyph unicode="r" d="M651 741l-44 -42h-185l-44 40l44 42h185zM706 360l-40 -44l-42 44v323l40 44l42 -44v-323zM349 741l-44 -42h-185l-44 40l44 42h185zM651 303l-44 -42h-185l-44 40l44 42h185zM609 -80h-22l-168 240v86h37l153 -220v-106zM103 360l-40 -44l-42 44v321l40 44l42 -44v-321z M349 303l-44 -42h-185l-44 40l44 42h185zM103 -77l-40 -45l-42 45v320l40 44l42 -44v-320z" />
<glyph unicode="s" d="M651 741l-44 -42h-185l-44 40l44 42h185zM349 741l-44 -42h-185l-44 40l44 42h185zM651 303l-44 -42h-185l-44 40l44 42h185zM706 -77l-40 -45l-42 45v320l40 44l42 -44v-320zM103 360l-40 -44l-42 44v321l40 44l42 -44v-321zM349 303l-44 -42h-185l-44 40l44 42h185z M651 -135l-44 -42h-185l-44 40l44 42h185zM349 -135l-44 -42h-185l-44 40l44 42h185z" />
<glyph unicode="t" d="M651 741l-44 -42h-185l-44 40l44 42h185zM349 741l-44 -42h-185l-44 40l44 42h185zM405 360l-40 -44l-43 44v321l40 44l43 -44v-321zM405 -77l-40 -45l-43 45v320l40 44l43 -44v-320z" />
<glyph unicode="u" d="M706 360l-40 -44l-42 44v323l40 44l42 -44v-323zM706 -77l-40 -45l-42 45v320l40 44l42 -44v-320zM103 360l-40 -44l-42 44v321l40 44l42 -44v-321zM651 -135l-44 -42h-185l-44 40l44 42h185zM103 -77l-40 -45l-42 45v320l40 44l42 -44v-320zM349 -135l-44 -42h-185 l-44 40l44 42h185z" />
<glyph unicode="v" d="M706 360l-40 -44l-42 44v323l40 44l42 -44v-323zM609 160l-168 -240h-22v106l154 220h36v-86zM103 360l-40 -44l-42 44v321l40 44l42 -44v-321zM308 -80h-22l-168 240v86h36l154 -220v-106z" />
<glyph unicode="w" d="M706 360l-40 -44l-42 44v323l40 44l42 -44v-323zM706 -77l-40 -45l-42 45v320l40 44l42 -44v-320zM609 -80h-22l-168 240v86h37l153 -220v-106zM103 360l-40 -44l-42 44v321l40 44l42 -44v-321zM308 160l-168 -240h-22v106l153 220h37v-86zM103 -77l-40 -45l-42 45v320 l40 44l42 -44v-320z" />
<glyph unicode="x" d="M609 577l-153 -219h-37v86l168 240h22v-107zM308 358h-37l-153 219v107h22l168 -240v-86zM609 -80h-22l-168 240v86h37l153 -220v-106zM308 160l-168 -240h-22v106l153 220h37v-86z" />
<glyph unicode="y" d="M609 577l-153 -219h-37v86l168 240h22v-107zM308 358h-37l-153 219v107h22l168 -240v-86zM405 -77l-40 -45l-43 45v320l40 44l43 -44v-320z" />
<glyph unicode="z" d="M651 741l-44 -42h-185l-44 40l44 42h185zM609 577l-153 -219h-37v86l168 240h22v-107zM349 741l-44 -42h-185l-44 40l44 42h185zM651 -135l-44 -42h-185l-44 40l44 42h185zM308 160l-168 -240h-22v106l153 220h37v-86zM349 -135l-44 -42h-185l-44 40l44 42h185z" />
<glyph unicode="{" d="M651 741l-44 -42h-185l-44 40l44 42h185zM405 360l-40 -44l-43 44v321l40 44l43 -44v-321zM405 -77l-40 -45l-43 45v320l40 44l43 -44v-320zM651 -135l-44 -42h-185l-44 40l44 42h185zM349 303l-44 -42h-185l-44 40l44 42h185z" />
<glyph unicode="|" d="M405 360l-40 -44l-43 44v321l40 44l43 -44v-321zM405 -77l-40 -45l-43 45v320l40 44l43 -44v-320z" />
<glyph unicode="}" d="M349 741l-44 -42h-185l-44 40l44 42h185zM405 360l-40 -44l-43 44v321l40 44l43 -44v-321zM405 -77l-40 -45l-43 45v320l40 44l43 -44v-320zM349 -135l-44 -42h-185l-44 40l44 42h185zM651 303l-44 -42h-185l-44 40l44 42h185z" />
<glyph unicode="&#xa0;" />
<glyph unicode="&#xad;" d="M651 303l-44 -42h-185l-44 40l44 42h185zM349 303l-44 -42h-185l-44 40l44 42h185z" />
<glyph unicode="&#xc6;" d="M651 741l-44 -42h-185l-44 40l44 42h185zM405 360l-40 -44l-43 44v321l40 44l43 -44v-321zM651 303l-44 -42h-185l-44 40l44 42h185zM308 577l-154 -219h-36v86l168 240h22v-107zM349 303l-44 -42h-185l-44 40l44 42h185zM405 -77l-40 -45l-43 45v320l40 44l43 -44v-320z M651 -135l-44 -42h-185l-44 40l44 42h185zM103 -77l-40 -45l-42 45v320l40 44l42 -44v-320z" />
<glyph unicode="&#xd8;" d="M651 741l-44 -42h-185l-44 40l44 42h185zM706 360l-40 -44l-42 44v323l40 44l42 -44v-323zM609 577l-153 -219h-37v86l168 240h22v-107zM349 741l-44 -42h-185l-44 40l44 42h185zM706 -77l-40 -45l-42 45v320l40 44l42 -44v-320zM103 360l-40 -44l-42 44v321l40 44 l42 -44v-321zM651 -135l-44 -42h-185l-44 40l44 42h185zM308 160l-168 -240h-22v106l153 220h37v-86zM103 -77l-40 -45l-42 45v320l40 44l42 -44v-320zM349 -135l-44 -42h-185l-44 40l44 42h185z" />
<glyph unicode="&#xe6;" d="M651 741l-44 -42h-185l-44 40l44 42h185zM405 360l-40 -44l-43 44v321l40 44l43 -44v-321zM651 303l-44 -42h-185l-44 40l44 42h185zM308 577l-154 -219h-36v86l168 240h22v-107zM349 303l-44 -42h-185l-44 40l44 42h185zM405 -77l-40 -45l-43 45v320l40 44l43 -44v-320z M651 -135l-44 -42h-185l-44 40l44 42h185zM103 -77l-40 -45l-42 45v320l40 44l42 -44v-320z" />
<glyph unicode="&#xf8;" d="M651 741l-44 -42h-185l-44 40l44 42h185zM706 360l-40 -44l-42 44v323l40 44l42 -44v-323zM609 577l-153 -219h-37v86l168 240h22v-107zM349 741l-44 -42h-185l-44 40l44 42h185zM706 -77l-40 -45l-42 45v320l40 44l42 -44v-320zM103 360l-40 -44l-42 44v321l40 44 l42 -44v-321zM651 -135l-44 -42h-185l-44 40l44 42h185zM308 160l-168 -240h-22v106l153 220h37v-86zM103 -77l-40 -45l-42 45v320l40 44l42 -44v-320zM349 -135l-44 -42h-185l-44 40l44 42h185z" />
<glyph unicode="&#x2000;" horiz-adv-x="390" />
<glyph unicode="&#x2001;" horiz-adv-x="781" />
<glyph unicode="&#x2002;" horiz-adv-x="390" />
<glyph unicode="&#x2003;" horiz-adv-x="781" />
<glyph unicode="&#x2004;" horiz-adv-x="260" />
<glyph unicode="&#x2005;" horiz-adv-x="195" />
<glyph unicode="&#x2006;" horiz-adv-x="130" />
<glyph unicode="&#x2007;" horiz-adv-x="130" />
<glyph unicode="&#x2008;" horiz-adv-x="97" />
<glyph unicode="&#x2009;" horiz-adv-x="156" />
<glyph unicode="&#x200a;" horiz-adv-x="43" />
<glyph unicode="&#x2010;" d="M651 303l-44 -42h-185l-44 40l44 42h185zM349 303l-44 -42h-185l-44 40l44 42h185z" />
<glyph unicode="&#x2011;" d="M651 303l-44 -42h-185l-44 40l44 42h185zM349 303l-44 -42h-185l-44 40l44 42h185z" />
<glyph unicode="&#x2012;" d="M651 303l-44 -42h-185l-44 40l44 42h185zM349 303l-44 -42h-185l-44 40l44 42h185z" />
<glyph unicode="&#x2013;" horiz-adv-x="725" d="M576 303l-38 -42h-161l-38 40l38 42h161zM313 303l-38 -42h-161l-38 40l38 42h161z" />
<glyph unicode="&#x2014;" horiz-adv-x="1225" d="M1076 303l-77 -42h-321l-77 40l77 42h321zM551 303l-77 -42h-321l-77 40l77 42h321z" />
<glyph unicode="&#x202f;" horiz-adv-x="156" />
<glyph unicode="&#x205f;" horiz-adv-x="195" />
<glyph unicode="&#xe000;" horiz-adv-x="685" d="M0 685h685v-685h-685v685z" />
</font>
</defs>
</svg>
